Дюна / Dune: Part One (2021) WEB-DL 1080p | D, P | iTunes скачать бесплатно торрент

Фильмы высокого разрешения в формате HD
Торрент [ Статус: Проверен ] Скачать Сидеров Личеров Размер
Dune.2021.D.MVO.WEB-DL.1080p.seleZen.mkv.torrent
10391 4221 10.68 ГБ
Аватара пользователя
admin
Администратор
Администратор
Сообщения: 11713
Зарегистрирован: 13 дек 2013, 01:15
Благодарил (а): 7 раз
Контактная информация:

Дюна / Dune: Part One (2021) WEB-DL 1080p | D, P | iTunes

Сообщение admin » 22 окт 2021, 20:08

Год выхода: 2021
Жанр: Фантастика, боевик, драма, приключения
Режиссер: Дени Вильнёв
В ролях: Тимоти Шаламе, Зендая, Ребекка Фергюсон, Оскар Айзек, Джош Бролин, Джейсон Момоа, Дэйв Батиста, Стеллан Скарсгард, Хавьер Бардем, Шарлотта Рэмплинг, Чан Чэнь, Давид Дастмалчян, Стивен Хендерсон, Шэрон Дункан-Брюстер, Бабс Олусанмокун, Майкл Нардон, Оливер Райан, Глория Обианё

Изображение Изображение

О фильме: События ленты разворачиваются в далеком будущем на планете Арракис, единственном источнике главного ресурса вселенной, необходимого для космических перелетов, — специи. По приказу императора глава дома Атрейдесов назначается правителем Арракиса. Его сын, молодой Пол Атрейдес, видит вещие сны и обладает удивительным даром. В его руках оказывается будущее всей планеты и его народа.

Страна: США, Канада, Венгрия
Студия: Legendary Pictures, Villeneuve Films, Warner Bros.
Продолжительность: 02:35:20
Перевод(ы):
#1: Дублированный | iTunes
#2: Профессиональный многоголосый | HDRezka Studio


Качество: WEB-DL 1080p
Видео: MPEG-4 AVC, 1920x816, 8241 Кbit/s, 23.976 fps
Аудио #01: 48 kHz, AC3, 5.1, 384 Kbps | Дублированный | iTunes | RUS |Изображение
Аудио #02: 48 kHz, AC3, 5.1, 448 Kbps | Профессиональный многоголосый | HDRezka Studio | RUS |Изображение
Аудио #03: 48 kHz, E-AC3+Atmos, 5.1, 768 Kbps | Оригинал | ENG |Изображение
Субтитры: Русские (2 x Forced, 2 x full), английские

Изображение Изображение Изображение Изображение Изображение
General
Unique ID : 262351530092343574284981495289011236254 (0xC55F11183C78D4BAECB51E0F56EBED9E)
Complete name : E:VideoDune.2021.D.MVO.WEB-DL.1080p.seleZen.mkv
Format : Matroska
Format version : Version 4
File size : 10.7 GiB
Duration : 2 h 35 min
Overall bit rate mode : Variable
Overall bit rate : 9 813 kb/s
Movie name : Dune 2021 from seleZen
Encoded date : UTC 2021-10-22 05:59:25
Writing application : mkvmerge v59.0.0 ('Shining Star') 64-bit
Writing library : libebml v1.4.2 + libmatroska v1.6.4

Video
ID : 1
Format : AVC
Format/Info : Advanced Video Codec
Format profile : [email protected]
Format settings : CABAC / 4 Ref Frames
Format settings, CABAC : Yes
Format settings, Reference frames : 4 frames
Codec ID : V_MPEG4/ISO/AVC
Duration : 2 h 35 min
Bit rate mode : Variable
Bit rate : 8 241 kb/s
Maximum bit rate : 12.4 Mb/s
Width : 1 920 pixels
Height : 816 pixels
Display aspect ratio : 2.35:1
Frame rate mode : Constant
Frame rate : 23.976 (24000/1001) FPS
Color space : YUV
Chroma subsampling : 4:2:0
Bit depth : 8 bits
Scan type : Progressive
Bits/(Pixel*Frame) : 0.219
Stream size : 8.94 GiB (84%)
Language : English
Default : Yes
Forced : No
Color range : Limited
Color primaries : BT.709
Transfer characteristics : BT.709
Matrix coefficients : BT.709

Audio #1
ID : 2
Format : AC-3
Format/Info : Audio Coding 3
Commercial name : Dolby Digital
Codec ID : A_AC3
Duration : 2 h 35 min
Bit rate mode : Constant
Bit rate : 384 kb/s
Channel(s) : 6 channels
Channel layout : L R C LFE Ls Rs
Sampling rate : 48.0 kHz
Frame rate : 31.250 FPS (1536 SPF)
Compression mode : Lossy
Delay relative to video : 28 ms
Stream size : 428 MiB (4%)
Title : Dub [iTunes]
Language : Russian
Service kind : Complete Main
Default : Yes
Forced : Yes

Audio #2
ID : 3
Format : AC-3
Format/Info : Audio Coding 3
Commercial name : Dolby Digital
Codec ID : A_AC3
Duration : 2 h 35 min
Bit rate mode : Constant
Bit rate : 448 kb/s
Channel(s) : 6 channels
Channel layout : L R C LFE Ls Rs
Sampling rate : 48.0 kHz
Frame rate : 31.250 FPS (1536 SPF)
Compression mode : Lossy
Delay relative to video : 28 ms
Stream size : 497 MiB (5%)
Title : MVO [HDRezka Studio]
Language : Russian
Service kind : Complete Main
Default : No
Forced : No

Audio #3
ID : 4
Format : E-AC-3 JOC
Format/Info : Enhanced AC-3 with Joint Object Coding
Commercial name : Dolby Digital Plus with Dolby Atmos
Codec ID : A_EAC3
Duration : 2 h 35 min
Bit rate mode : Constant
Bit rate : 768 kb/s
Channel(s) : 6 channels
Channel layout : L R C LFE Ls Rs
Sampling rate : 48.0 kHz
Frame rate : 31.250 FPS (1536 SPF)
Compression mode : Lossy
Delay relative to video : 28 ms
Stream size : 853 MiB (8%)
Title : Original
Language : English
Service kind : Complete Main
Default : No
Forced : No
Complexity index : 16
Number of dynamic objects : 15
Bed channel count : 1 channel
Bed channel configuration : LFE

Text #1
ID : 5
Format : UTF-8
Codec ID : S_TEXT/UTF8
Codec ID/Info : UTF-8 Plain Text
Duration : 2 h 27 min
Bit rate : 2 b/s
Count of elements : 51
Stream size : 2.44 KiB (0%)
Title : Forced [iTunes]
Language : Russian
Default : Yes
Forced : Yes

Text #2
ID : 6
Format : UTF-8
Codec ID : S_TEXT/UTF8
Codec ID/Info : UTF-8 Plain Text
Duration : 2 h 28 min
Bit rate : 52 b/s
Count of elements : 1261
Stream size : 56.9 KiB (0%)
Title : Full [iTunes]
Language : Russian
Default : No
Forced : No

Text #3
ID : 7
Format : UTF-8
Codec ID : S_TEXT/UTF8
Codec ID/Info : UTF-8 Plain Text
Duration : 2 h 27 min
Bit rate : 2 b/s
Count of elements : 67
Stream size : 2.94 KiB (0%)
Title : Forced [HDRezka Studio]
Language : Russian
Default : No
Forced : No

Text #4
ID : 8
Format : UTF-8
Codec ID : S_TEXT/UTF8
Codec ID/Info : UTF-8 Plain Text
Duration : 2 h 26 min
Bit rate : 52 b/s
Count of elements : 1002
Stream size : 56.5 KiB (0%)
Title : Full v.2
Language : Russian
Default : No
Forced : No

Text #5
ID : 9
Format : UTF-8
Codec ID : S_TEXT/UTF8
Codec ID/Info : UTF-8 Plain Text
Duration : 2 h 25 min
Bit rate : 31 b/s
Count of elements : 1335
Stream size : 34.0 KiB (0%)
Title : Full
Language : English
Default : No
Forced : No

Text #6
ID : 10
Format : UTF-8
Codec ID : S_TEXT/UTF8
Codec ID/Info : UTF-8 Plain Text
Duration : 2 h 26 min
Bit rate : 41 b/s
Count of elements : 1723
Stream size : 44.3 KiB (0%)
Title : SDH
Language : English
Default : No
Forced : No

Как скачать!

  • Похожие темы
    Ответы
    Просмотры
    Последнее сообщение

Вернуться в «Фильмы HD»

Кто сейчас на конференции

Сейчас этот форум просматривают: нет зарегистрированных пользователей и 1 гость