Круиз по джунглям / Jungle Cruise (2021) WEB-DL 1080p | P, A скачать бесплатно торрент

Фильмы высокого разрешения в формате HD
Торрент [ Статус: Проверен ] Скачать Сидеров Личеров Размер
Jungle.Cruise.2021.1080p.WEB-DL..mkv.torrent
48 5 7.67 ГБ
Аватара пользователя
admin
Администратор
Администратор
Сообщения: 11713
Зарегистрирован: 13 дек 2013, 01:15
Благодарил (а): 7 раз
Контактная информация:

Круиз по джунглям / Jungle Cruise (2021) WEB-DL 1080p | P, A

Сообщение admin » 10 авг 2021, 20:31

Год выпуска: 2021
Выпущено: США, Walt Disney Pictures, Davis Entertainment, 7 Bucks Productions, TSG Entertainment, Zaftig Films, Flynn Picture Company
Жанр: приключения, комедия, фэнтези
Продолжительность: 02:07:18
Перевод: Профессиональный (многоголосый, закадровый) HDRezka Studio, авторский (М. Яроцкий)

Режиссер: Жауме Кольет-Серра
В ролях: Дуэйн Джонсон, Эмили Блант, Эдгар Рамирес, Джек Уайтхолл, Джесси Племонс, Пол Джаматти, Вероника Фалькон, Дани Ровира, Ким Гутьеррес, Дэн Дарган Картер, Энди Найман, Рафаэль Алехандро, Симона Локхарт, Педро Лопес, Сулем Кальдерон, Себастьян Блант, Марк Эшворт, Аллан Попплтон, Кэролайн Пейдж, Джеймс Кватрочи

О фильме: Отважная исследовательница дикой природы Лили Хоутон намерена отправиться в верховья Амазонки, чтобы найти легендарное дерево, которое – согласно преданиям южноамериканских индейских племен – обладает магическими целебными свойствами. Сопровождать Лили будут её утонченный брат Макгрегор и бесшабашный капитан круизного пароходика Фрэнк. В дебрях джунглей путников будут подстерегать не только смертельно опасные представители амазонской флоры и фауны, но и ловушки, подстроенные участниками конкурирующей экспедиции, и даже встречи со сверхъестественным.

Изображение Изображение

Качество: WEB-DL 1080p
Видео: MPEG-4 AVC, 6762 Kбит/с, 19200x1080
Аудио 1: AC3, 6 ch, 448 Кбит/с |HDRezka Studio
Аудио 1: AC3, 6 ch, 640 Кбит/с |М. Яроцкий
Аудио 2: E-AC3 JOC, 6 ch, 768 Кбит/с |Изображение
Субтитры: Русские (Forced, Full), Английские



Изображение Изображение Изображение Изображение

Общее
Уникальный идентификатор : 45418513716375094851316684206680358777 (0x222B499D81673D8BFDD97576D454BF79)
Полное имя : C:UsersNickDesktopJungle.Cruise.2021.1080p.WEB-DL..mkv
Формат : Matroska
Версия формата : Version 4
Размер файла : 7,67 Гбайт
Продолжительность : 2 ч. 7 м.
Режим общего битрейта : Переменный
Общий поток : 8 621 Кбит/сек
Название фильма : Jungle.Cruise.2021.1080p.WEB-DL.
Дата кодирования : UTC 2021-08-09 06:55:44
Программа кодирования : mkvmerge v59.0.0 ('Shining Star') 64-bit
Библиотека кодирования : libebml v1.4.2 + libmatroska v1.6.4

Видео
Идентификатор : 1
Формат : AVC
Формат/Информация : Advanced Video Codec
Профиль формата : [email protected]
Настройки формата : CABAC / 4 Ref Frames
Параметр CABAC формата : Да
Параметр RefFrames формата : 4 кадра
Идентификатор кодека : V_MPEG4/ISO/AVC
Продолжительность : 2 ч. 7 м.
Вид битрейта : Переменный
Битрейт : 6 762 Кбит/сек
Максимальный битрейт : 12,7 Мбит/сек
Ширина : 1 920 пикселей
Высота : 1 080 пикселей
Соотношение сторон : 16:9
Режим частоты кадров : Постоянный
Частота кадров : 23,976 (24000/1001) кадра/сек
Цветовое пространство : YUV
Субдискретизация насыщенности : 4:2:0
Битовая глубина : 8 бит
Тип развёртки : Прогрессивная
Бит/(Пиксели*Кадры) : 0.136
Размер потока : 6,01 Гбайт (78%)
Default : Да
Forced : Нет
Цветовой диапазон : Limited
Основные цвета : BT.709
Характеристики трансфера : BT.709
Коэффициенты матрицы : BT.709

Аудио #1
Идентификатор : 2
Формат : AC-3
Формат/Информация : Audio Coding 3
Коммерческое название : Dolby Digital
Идентификатор кодека : A_AC3
Продолжительность : 2 ч. 7 м.
Вид битрейта : Постоянный
Битрейт : 448 Кбит/сек
Каналы : 6 каналов
Channel layout : L R C LFE Ls Rs
Частота : 48,0 КГц
Частота кадров : 31,250 кадров/сек (1536 SPF)
Метод сжатия : С потерями
Размер потока : 408 Мбайт (5%)
Заголовок : [MVO] HDRezka
Язык : Russian
Service kind : Complete Main
Default : Да
Forced : Нет

Аудио #2
Идентификатор : 3
Формат : AC-3
Формат/Информация : Audio Coding 3
Коммерческое название : Dolby Digital
Идентификатор кодека : A_AC3
Продолжительность : 2 ч. 7 м.
Вид битрейта : Постоянный
Битрейт : 640 Кбит/сек
Каналы : 6 каналов
Channel layout : L R C LFE Ls Rs
Частота : 48,0 КГц
Частота кадров : 31,250 кадров/сек (1536 SPF)
Метод сжатия : С потерями
Размер потока : 583 Мбайт (7%)
Заголовок : [AVO] Kiberpank | Яроцкий
Язык : Russian
Service kind : Complete Main
Default : Нет
Forced : Нет

Аудио #3
Идентификатор : 4
Формат : E-AC-3 JOC
Формат/Информация : Enhanced AC-3 with Joint Object Coding
Коммерческое название : Dolby Digital Plus with Dolby Atmos
Идентификатор кодека : A_EAC3
Продолжительность : 2 ч. 7 м.
Вид битрейта : Постоянный
Битрейт : 768 Кбит/сек
Каналы : 6 каналов
Channel layout : L R C LFE Ls Rs
Частота : 48,0 КГц
Частота кадров : 31,250 кадров/сек (1536 SPF)
Метод сжатия : С потерями
Размер потока : 699 Мбайт (9%)
Заголовок : English
Язык : English
Service kind : Complete Main
Default : Нет
Forced : Нет
Complexity index : 16
Number of dynamic objects : 15
Bed channel count : 1 канал
Bed channel configuration : LFE

Текст #1
Идентификатор : 5
Формат : UTF-8
Идентификатор кодека : S_TEXT/UTF8
Идентификатор кодека/Информация : UTF-8 Plain Text
Продолжительность : 1 ч. 48 м.
Битрейт : 5 бит/сек
Count of elements : 114
Размер потока : 4,33 Кбайт (0%)
Заголовок : [Forced]
Язык : Russian
Default : Да
Forced : Нет

Текст #2
Идентификатор : 6
Формат : UTF-8
Идентификатор кодека : S_TEXT/UTF8
Идентификатор кодека/Информация : UTF-8 Plain Text
Продолжительность : 1 ч. 56 м.
Битрейт : 99 бит/сек
Count of elements : 1593
Размер потока : 84,7 Кбайт (0%)
Заголовок : [Full]
Язык : Russian
Default : Нет
Forced : Нет

Текст #3
Идентификатор : 7
Формат : UTF-8
Идентификатор кодека : S_TEXT/UTF8
Идентификатор кодека/Информация : UTF-8 Plain Text
Продолжительность : 2 ч. 6 м.
Битрейт : 55 бит/сек
Count of elements : 1643
Размер потока : 51,1 Кбайт (0%)
Заголовок : English
Язык : English
Default : Нет
Forced : Нет

Как скачать!

  • Похожие темы
    Ответы
    Просмотры
    Последнее сообщение

Вернуться в «Фильмы HD»

Кто сейчас на конференции

Сейчас этот форум просматривают: нет зарегистрированных пользователей и 0 гостей