Удивительный мир Микки Мауса / The Wonderful World of Mickey Mouse [01x01-14 из 20] (2020) WEB-DL 720p | TVShows, BaibaKo скачать бесплатно торрент

Торрент [ Статус: Проверен ] Скачать Сидеров Личеров Размер
TWWoMM_(s01)_720p.torrent
9 1 3.7 ГБ
Аватара пользователя
admin
Администратор
Администратор
Сообщения: 11713
Зарегистрирован: 13 дек 2013, 01:15
Благодарил (а): 7 раз
Контактная информация:

Удивительный мир Микки Мауса / The Wonderful World of Mickey Mouse [01x01-14 из 20] (2020) WEB-DL 720p | TVShows, BaibaKo

Сообщение admin » 10 авг 2021, 20:28

Год выхода: 2020
Жанр: мультфильм, короткометражка, комедия, семейный
Режиссер: Эдди Тригерос
В ролях: Крис Диамантополос, Билл Фармер, Тони Ансельмо, Кейтлин Роброк, Джим Каммингс, Тресс МакНилл, Кори Бертон, Алан Тьюдик, Ди Брэдли Бейкер, Джефф Беннетт

О фильме: Легендарный Микки и его лучшие друзья – Дональд, Минни, Дейзи, Гуфи и Плуто – вновь отправляются в увлекательные путешествия, во время которых их ждут захватывающие приключения и неожиданные встречи.

Изображение Изображение

Страна: США
Студия: Walt Disney Television Animation, Mercury Filmworks
Продолжительность: ~00:07:00 серия
Перевод: Профессиональный (многоголосый, закадровый), Любительский (многоголосый, закадровый)

Файл
Качество: WEB-DL 720p | The.Wonderful.World.Of.Mickey.Mouse.S01.720p.DSNP.WEBRip.DDP5.1.x264-LAZY
Формат: Matroska
Видео: 1280x720 at 23.976 fps, MPEG-4 AVC, ~4150 kbps avg
Аудио#1: Russian: 48 kHz, AC3, 3/2 (L,C,R,l,r) + LFE ch, ~384 kbps avg |Многоголосый закадровый, TVShows|
Аудио#2: Russian: 48 kHz, AC3, 3/2 (L,C,R,l,r) + LFE ch, ~384 kbps avg |Многоголосый закадровый, BaibaKo|
Аудио#3: English: 48 kHz, AC3, 3/2 (L,C,R,l,r) + LFE ch, ~384 kbps avg
Субтитры: English (SDH)

***Примечание: Без рекламы



Изображение Изображение Изображение Изображение
01. Сырные ковбои / Cheese Wranglers
02. Дом будущего / House of Tomorrow
03. Гадкое на вкус / Hard to Swallow
04. Школа для рыб / School of Fish
05. Время кататься / Keep on Rollin'
06. Большой добрый волк / The Big Good Wolf
07. Храбрый маленький оруженосец / The Brave Little Squire
08. Обычное свидание / An Ordinary Date
09. Потасовка в супермаркете / Supermarket Scramble
10. Только мы в четвером / Just the Four of Us
11. Домашние призраки / Houseghosts
12. Очаровательная хижина / The Enchanting Hut
13. Дуэт для двоих / Duet for Two
14. Наблюдая за птицами / Birdwatching
Общее
Уникальный идентификатор : 179807570677730341495561462392714047758 (0x8745ADAF86DCCD2798C7E3FB9FF2310E)
Полное имя : The.Wonderful.World.Of.Mickey.Mouse.s01e01. Сырные ковбои.mkv
Формат : Matroska
Версия формата : Version 2
Размер файла : 287 Мбайт
Продолжительность : 7 м. 26 с.
Режим общего битрейта : Переменный
Общий поток : 5399 Кбит/сек
Название фильма : Cheese Wranglers
Дата кодирования : UTC 2020-12-25 17:55:40
Программа кодирования : mkvmerge v6.9.1 ('Blue Panther') 32bit built on Apr 18 2014 18:15:44
Библиотека кодирования : libebml v1.3.0 + libmatroska v1.4.1

Видео
Идентификатор : 1
Формат : AVC
Формат/Информация : Advanced Video Codec
Профиль формата : [email protected]
Настройки формата : CABAC / 4 Ref Frames
Параметр CABAC формата : Да
Параметр RefFrames формата : 4 кадра
Идентификатор кодека : V_MPEG4/ISO/AVC
Продолжительность : 7 м. 26 с.
Вид битрейта : Переменный
Битрейт : 4140 Кбит/сек
Максимальный битрейт : 6375 Кбит/сек
Ширина : 1280 пикселей
Высота : 720 пикселей
Соотношение сторон : 16:9
Режим частоты кадров : Постоянный
Частота кадров : 23,976 (24000/1001) кадра/сек
Цветовое пространство : YUV
Субдискретизация насыщенности : 4:2:0
Битовая глубина : 8 бит
Тип развёртки : Прогрессивная
Бит/(Пиксели*Кадры) : 0.187
Размер потока : 220 Мбайт (77%)
Язык : English
Default : Да
Forced : Нет
Цветовой диапазон : Limited
Основные цвета : BT.709
Характеристики трансфера : BT.709
Коэффициенты матрицы : BT.709

Аудио #1
Идентификатор : 2
Формат : AC-3
Формат/Информация : Audio Coding 3
Коммерческое название : Dolby Digital
Идентификатор кодека : A_AC3
Продолжительность : 7 м. 26 с.
Вид битрейта : Постоянный
Битрейт : 384 Кбит/сек
Каналы : 6 каналов
Channel layout : L R C LFE Ls Rs
Частота : 48,0 КГц
Частота кадров : 31,250 кадров/сек (1536 SPF)
Битовая глубина : 16 бит
Метод сжатия : С потерями
Размер потока : 20,4 Мбайт (7%)
Заголовок : TVShows
Язык : Russian
ServiceKind/String : Complete Main
Default : Да
Forced : Нет

Аудио #2
Идентификатор : 3
Формат : AC-3
Формат/Информация : Audio Coding 3
Коммерческое название : Dolby Digital
Идентификатор кодека : A_AC3
Продолжительность : 7 м. 26 с.
Вид битрейта : Постоянный
Битрейт : 384 Кбит/сек
Каналы : 6 каналов
Channel layout : L R C LFE Ls Rs
Частота : 48,0 КГц
Частота кадров : 31,250 кадров/сек (1536 SPF)
Битовая глубина : 16 бит
Метод сжатия : С потерями
Размер потока : 20,4 Мбайт (7%)
Заголовок : BaibaKo
Язык : Russian
ServiceKind/String : Complete Main
Default : Нет
Forced : Нет

Аудио #3
Идентификатор : 4
Формат : AC-3
Формат/Информация : Audio Coding 3
Коммерческое название : Dolby Digital
Идентификатор кодека : A_AC3
Продолжительность : 7 м. 26 с.
Вид битрейта : Постоянный
Битрейт : 384 Кбит/сек
Каналы : 6 каналов
Channel layout : L R C LFE Ls Rs
Частота : 48,0 КГц
Частота кадров : 31,250 кадров/сек (1536 SPF)
Битовая глубина : 16 бит
Метод сжатия : С потерями
Размер потока : 20,4 Мбайт (7%)
Язык : English
ServiceKind/String : Complete Main
Default : Нет
Forced : Нет

Текст
Идентификатор : 5
Формат : UTF-8
Идентификатор кодека : S_TEXT/UTF8
Идентификатор кодека/Информация : UTF-8 Plain Text
Заголовок : SDH
Язык : English
Default : Нет
Forced : Нет

Как скачать!

  • Похожие темы
    Ответы
    Просмотры
    Последнее сообщение

Вернуться в «Мультсериалы»

Кто сейчас на конференции

Сейчас этот форум просматривают: нет зарегистрированных пользователей и 1 гость