#СеняФедя [05х01-04 из 17] (2021) WEB-DL 1080p скачать бесплатно торрент

Русские и стран ближнего зарубежья сериалы,на русском языке.
Правила форума
Скачать торрент русские сериалы
Торрент [ Статус: Проверен ] Скачать Сидеров Личеров Размер
SenyaFedya.S05.2021.WEB-DL.1080p.torrent
0 0 2.59 ГБ
Аватара пользователя
admin
Администратор
Администратор
Сообщения: 11713
Зарегистрирован: 13 дек 2013, 01:15
Благодарил (а): 7 раз
Контактная информация:

#СеняФедя [05х01-04 из 17] (2021) WEB-DL 1080p

Сообщение admin » 08 дек 2021, 20:27

Информация о фильме
Название: #СеняФедя
Год выхода: 2021
Жанр: Комедия
Режиссер: Михаил Соловьев
В ролях: Сергей Лавыгин, Михаил Тарабукин, Анна Бегунова, Ирина Аугшкап, Леся Кудряшова, Кристина Юдичева, Арина Полонская, Алексей Старченко, Андрей Трушин, Галина Коньшина, Никита Дювбанов, Екатерина Ерохина, Дмитрий Мазуров, Александр Ревенко, Андрей Капустин, Сергей Марухин, Роман Селецкий, Татьяна Чердынцева, Татьяна Сомова, Андрей Курносов, Мария Ульянова, Алина Носуленко, Кирилл Симоненко, Светлана Рога, Женя Евстигнеева, Варвара Верховых, Дмитрий Корепин, Владимир Ляхов, Алёна Минчук, Денис Шаблий, Антон Шварц, Вера Островская, Наталия Меньшова, Сергей Степин, Дмитрий Нагиев, Дмитрий Белоцерковский, Александр Обласов, Максим Мальцев, Иван Гришанов, Александр Никольский, Анна Шапран, Анна Шапран, Настасья Кербенген, Маруся Пестунова, Владимир Иваний, Павел Кижук, Нелла Стрекаловская, Алексей Соколков, Юлия Беляева, Павел Голубев, Наталья Бергер, Вячеслав Колядин, Владимир Зомерфельд, Катя Кабак, Дмитрий Сотниченко, Анна Старшенбаум, Вадим Руденко, Александр Маврин, Сергей Неудачин, Дарья Пескова, Валентин Драб, Александра Живова, Олег Курсачёв, Ольга Сташкевич, Евгения Шевченко, Алина Андрейченко, Марина Доможирова, Николай Рыжков, Марина Донец, Николай Ткаченко, Семен Дорин, Вадим Першин, Иванка Осина-Фридман, Эльберд Агаев, Мария Баева, Анастасия Козырева, Андрей Юртаев, Константин Умрихин, Виктор Ким, Игорь Серебряный, Марк Румянцев, Арсений Тур, Андрей Федорцов, Клим Поплавский, Анатолий Кот, Наталья Кийко

О фильме:
Неразлучная пара поваров самой сытной телевселенной «Кухни» возвращается в новом сезоне. Сеня и Федя смогли пережить столкновение с контрабандистами, вампирами и обнаружить в собственном фуд-траке тайник с золотом, но пока так и не раскрыли рецепт идеального бизнеса. Теперь их ждет новый вызов: друзья решают открыть бургерную.

Изображение Изображение

Страна: Россия
Студия: Производство ООО «Пик Ап Фильм» при участии ООО «Сок» по заказу АО «СТС»
Продолжительность: 4 х ~ 00:25:00
Язык: Русский

Премьера: 07 декабря 2021 года (СТС)
Примечание: Без рекламы

Файл
Формат: MKV
Качество: WEB-DL 1080p
Видео: MPEG-4 AVC, ~ 3500 Кбит/с, 1920x720
Звук: AC3, 2 ch, 192 Кбит/с
Субтитры: Отсутствуют
Семпл
Изображение Изображение Изображение Изображение
Общее
Уникальный идентификатор : 137615553618645521536939232727947356752 (0x6787CAA333973A0CEEE9AC6218B92A50)
Полное имя : D:SenyaFedya.S05.E01.2021.WEB-DL.1080pSenyaFedya.S05.2021.WEB-DL.1080p.mkv
Формат : Matroska
Версия формата : Version 4
Размер файла : 666 Мбайт
Продолжительность : 25 м. 18 с.
Общий поток : 3 681 Кбит/сек
Название фильма : SenyaFedya.S05.2021.WEB-DL.1080p
Дата кодирования : UTC 2021-12-07 16:36:13
Программа кодирования : mkvmerge v63.0.0 ('Everything') 64-bit
Библиотека кодирования : libebml v1.4.2 + libmatroska v1.6.4
Attachments : poster.jpg

Видео
Идентификатор : 1
Формат : AVC
Формат/Информация : Advanced Video Codec
Профиль формата : [email protected]
Настройки формата : CABAC / 5 Ref Frames
Параметр CABAC формата : Да
Параметр RefFrames формата : 5 кадров
Идентификатор кодека : V_MPEG4/ISO/AVC
Продолжительность : 25 м. 18 с.
Битрейт : 3 487 Кбит/сек
Ширина : 1 920 пикселей
Высота : 1 080 пикселей
Соотношение сторон : 16:9
Режим частоты кадров : Постоянный
Частота кадров : 25,000 кадров/сек
Стандарт вещания : PAL
Цветовое пространство : YUV
Субдискретизация насыщенности : 4:2:0
Битовая глубина : 8 бит
Тип развёртки : Прогрессивная
Бит/(Пиксели*Кадры) : 0.067
Размер потока : 631 Мбайт (95%)
Default : Да
Forced : Нет
Цветовой диапазон : Limited
Основные цвета : BT.709
Характеристики трансфера : BT.709
Коэффициенты матрицы : BT.709

Аудио
Идентификатор : 2
Формат : AC-3
Формат/Информация : Audio Coding 3
Коммерческое название : Dolby Digital
Идентификатор кодека : A_AC3
Продолжительность : 25 м. 18 с.
Вид битрейта : Постоянный
Битрейт : 192 Кбит/сек
Каналы : 2 канала
Channel layout : L R
Частота : 48,0 КГц
Частота кадров : 31,250 кадров/сек (1536 SPF)
Метод сжатия : С потерями
Размер потока : 34,8 Мбайт (5%)
Service kind : Complete Main
Default : Да
Forced : Нет

Как скачать!

  • Похожие темы
    Ответы
    Просмотры
    Последнее сообщение

Вернуться в «Русские сериалы»

Кто сейчас на конференции

Сейчас этот форум просматривают: нет зарегистрированных пользователей и 1 гость