Универ. 10 лет спустя [01-02 из 12] (2021) WEBRip 1080p скачать бесплатно торрент

Русские и стран ближнего зарубежья сериалы,на русском языке.
Правила форума
Скачать торрент русские сериалы
Торрент [ Статус: Проверен ] Скачать Сидеров Личеров Размер
Univer.10.let.spustya.S01.2021.WEB-DL.1080p.torrent
458 300 3.05 ГБ
Аватара пользователя
admin
Администратор
Администратор
Сообщения: 11713
Зарегистрирован: 13 дек 2013, 01:15
Благодарил (а): 7 раз
Контактная информация:

Универ. 10 лет спустя [01-02 из 12] (2021) WEBRip 1080p

Сообщение admin » 08 дек 2021, 20:23

Страна: Россия
Студия: Производство ООО «Комеди Клаб продакшн»
Продолжительность: 2 х ~ 00:45:00
Язык: Русский

Премьера: 06 декабря 2021 года (ТНТ)
Примечание: Без рекламы

Файл
Формат: MKV
Качество: WEBRip 1080p
Видео: MPEG-4 AVC, ~ 4500 Кбит/с, 1920x1072
Звук: AC3, 2 ch, 192 Кбит/с
Субтитры: Отсутствуют
Семпл
Изображение Изображение Изображение Изображение
Общее
Уникальный идентификатор : 46276614415728531849273076289956106631 (0x22D08D3F0452990E26F186A6B3EE5187)
Полное имя : D:Univer.10.let.spustya.S01.2021.WEB-DL.1080pUniver.10.let.spustya.S01.E01.2021.WEB-DL.1080p.mkv
Формат : Matroska
Версия формата : Version 4
Размер файла : 1,50 Гбайт
Продолжительность : 46 м. 2 с.
Режим общего битрейта : Переменный
Общий поток : 4 657 Кбит/сек
Название фильма : Univer.10.let.spustya.S01.E01.2021.WEB-DL.1080p
Дата кодирования : UTC 2021-12-06 18:06:09
Программа кодирования : mkvmerge v63.0.0 ('Everything') 64-bit
Библиотека кодирования : libebml v1.4.2 + libmatroska v1.6.4
Attachments : poster.jpg

Видео
Идентификатор : 1
Формат : AVC
Формат/Информация : Advanced Video Codec
Профиль формата : [email protected]
Настройки формата : CABAC / 1 Ref Frames
Параметр CABAC формата : Да
Параметр RefFrames формата : 1 кадр
Параметр GOP формата : M=1, N=50
Идентификатор кодека : V_MPEG4/ISO/AVC
Продолжительность : 46 м. 2 с.
Вид битрейта : Переменный
Битрейт : 4 500 Кбит/сек
Ширина : 1 920 пикселей
Высота : 1 072 пикселя
Соотношение сторон : 16:9
Режим частоты кадров : Постоянный
Частота кадров : 25,000 кадров/сек
Цветовое пространство : YUV
Субдискретизация насыщенности : 4:2:0
Битовая глубина : 8 бит
Тип развёртки : Прогрессивная
Бит/(Пиксели*Кадры) : 0.087
Размер потока : 1,44 Гбайт (96%)
Default : Да
Forced : Нет

Аудио
Идентификатор : 2
Формат : AC-3
Формат/Информация : Audio Coding 3
Коммерческое название : Dolby Digital
Идентификатор кодека : A_AC3
Продолжительность : 46 м. 2 с.
Вид битрейта : Постоянный
Битрейт : 192 Кбит/сек
Каналы : 2 канала
Channel layout : L R
Частота : 48,0 КГц
Частота кадров : 31,250 кадров/сек (1536 SPF)
Метод сжатия : С потерями
Размер потока : 63,2 Мбайт (4%)
Service kind : Complete Main
Default : Да
Forced : Нет

Как скачать!

  • Похожие темы
    Ответы
    Просмотры
    Последнее сообщение

Вернуться в «Русские сериалы»

Кто сейчас на конференции

Сейчас этот форум просматривают: нет зарегистрированных пользователей и 1 гость