Рой / La nuée (2020) WEB-DL 1080p | Pazl Voice скачать бесплатно торрент

Фильмы высокого разрешения в формате HD
Торрент [ Статус: Проверен ] Скачать Сидеров Личеров Размер
The.Swarm.2020.FRENCH.1080p.NF.WEB-DL.mkv.torrent
1 0 3.68 ГБ
Аватара пользователя
admin
Администратор
Администратор
Сообщения: 11713
Зарегистрирован: 13 дек 2013, 01:15
Благодарил (а): 7 раз
Контактная информация:

Рой / La nuée (2020) WEB-DL 1080p | Pazl Voice

Сообщение admin » 10 авг 2021, 20:37

Год выпуска: 2020
Выпущено: Франция, arte France Cinéma, Auvergne Rhône-Alpes Cinéma, Centre National de la Cinématographie (CNC), Creative Europe Media, The Jokers Films
Жанр: ужасы, фэнтези, драма
Продолжительность: 01:41:42
Перевод: Любительский двухголосый (Pazl Voice)

Режиссер:
Жюст Филиппо
В ролях: Сулиан Брахим, Софиан Кхаммес, Мари Нарбонн, Рафаэль Роман, Стефан Кастанг, Виктор Боннель, Кристиан Буйлет, Ренан Прево, Винсент Дениар, Клеман Бертани, Гийом Бурштин, Тьерри Калас, Рафаэль Лио, Натали Бойер, Барнаби Бернар

О фильме: Чтобы спасти свою ферму от банкротства, мать-одиночка начинает бизнес по разведению съедобных кузнечиков. Вскоре у нее складываются странные, навязчивые отношения с ними.

Изображение Изображение

Качество: WEB-DL 1080p | The.Swarm.2020.FRENCH.1080p.NF.WEB-DL.DDP5.1.x264-AGLET
Видео: MPEG-4 AVC, 3480 Kбит/с, 1920x1080
Аудио 1: AC3, 6 ch, 448 Кбит/с |Изображение TNX. KinoPub.
Аудио 2: E-AC3, 6 ch, 640 Кбит/с |Изображение
Аудио 3: E-AC3, 6 ch, 640 Кбит/с |Изображение
Субтитры: Русские, английские, украинские



Изображение Изображение Изображение Изображение

Общее
Уникальный идентификатор : 253519578345387187823013661629048270634 (0xBEBA18410962AA12A74760902ED5AF2A)
Полное имя : E:TorrentsThe.Swarm.2020.FRENCH.1080p.NF.WEB-DL.mkv
Формат : Matroska
Версия формата : Version 4
Размер файла : 3,68 Гбайт
Продолжительность : 1 ч. 41 м.
Режим общего битрейта : Переменный
Общий поток : 5 181 Кбит/сек
Название фильма : The.Swarm.2020.FRENCH.1080p.NF.WEB-DL
Дата кодирования : UTC 2021-08-10 15:10:54
Программа кодирования : mkvmerge v59.0.0 ('Shining Star') 64-bit
Библиотека кодирования : libebml v1.4.2 + libmatroska v1.6.4

Видео
Идентификатор : 1
Формат : AVC
Формат/Информация : Advanced Video Codec
Профиль формата : [email protected]
Настройки формата : CABAC / 3 Ref Frames
Параметр CABAC формата : Да
Параметр RefFrames формата : 3 кадра
Идентификатор кодека : V_MPEG4/ISO/AVC
Продолжительность : 1 ч. 41 м.
Вид битрейта : Переменный
Битрейт : 3 480 Кбит/сек
Максимальный битрейт : 5 220 Кбит/сек
Ширина : 1 920 пикселей
Высота : 1 080 пикселей
Соотношение сторон : 16:9
Режим частоты кадров : Постоянный
Частота кадров : 24,000 кадра/сек
Цветовое пространство : YUV
Субдискретизация насыщенности : 4:2:0
Битовая глубина : 8 бит
Тип развёртки : Прогрессивная
Бит/(Пиксели*Кадры) : 0.070
Размер потока : 2,45 Гбайт (67%)
Библиотека кодирования : x264 core 148 r2722 1b0121b
Настройки программы : cabac=1 / ref=3 / deblock=1:0:0 / analyse=0x1:0x111 / me=umh / subme=10 / psy=1 / psy_rd=1.00:0.00 / mixed_ref=1 / me_range=24 / chroma_me=1 / trellis=2 / 8x8dct=0 / cqm=0 / deadzone=21,11 / fast_pskip=1 / chroma_qp_offset=-2 / threads=6 / lookahead_threads=1 / sliced_threads=0 / nr=0 / decimate=1 / interlaced=0 / bluray_compat=0 / stitchable=1 / constrained_intra=0 / bframes=2 / b_pyramid=0 / b_adapt=2 / b_bias=0 / direct=3 / weightb=1 / open_gop=0 / weightp=2 / keyint=250 / keyint_min=24 / scenecut=0 / intra_refresh=0 / rc_lookahead=48 / rc=2pass / mbtree=1 / bitrate=3480 / ratetol=1.0 / qcomp=0.50 / qpmin=6 / qpmax=51 / qpstep=4 / cplxblur=20.0 / qblur=0.5 / vbv_maxrate=5220 / vbv_bufsize=6960 / nal_hrd=vbr / filler=0 / ip_ratio=1.40 / aq=1:1.00
Язык : French
Default : Да
Forced : Нет

Аудио #1
Идентификатор : 2
Формат : AC-3
Формат/Информация : Audio Coding 3
Коммерческое название : Dolby Digital
Идентификатор кодека : A_AC3
Продолжительность : 1 ч. 41 м.
Вид битрейта : Постоянный
Битрейт : 448 Кбит/сек
Каналы : 6 каналов
Channel layout : L R C LFE Ls Rs
Частота : 48,0 КГц
Частота кадров : 31,250 кадров/сек (1536 SPF)
Метод сжатия : С потерями
Размер потока : 326 Мбайт (9%)
Заголовок : [DVO] Pazl Voice | KinoPub
Язык : Russian
Service kind : Complete Main
Default : Да
Forced : Нет

Аудио #2
Идентификатор : 3
Формат : E-AC-3
Формат/Информация : Enhanced AC-3
Коммерческое название : Dolby Digital Plus
Идентификатор кодека : A_EAC3
Продолжительность : 1 ч. 41 м.
Вид битрейта : Постоянный
Битрейт : 640 Кбит/сек
Каналы : 6 каналов
Channel layout : L R C LFE Ls Rs
Частота : 48,0 КГц
Частота кадров : 31,250 кадров/сек (1536 SPF)
Метод сжатия : С потерями
Размер потока : 466 Мбайт (12%)
Язык : English
Service kind : Complete Main
Default : Нет
Forced : Нет

Аудио #3
Идентификатор : 4
Формат : E-AC-3
Формат/Информация : Enhanced AC-3
Коммерческое название : Dolby Digital Plus
Идентификатор кодека : A_EAC3
Продолжительность : 1 ч. 41 м.
Вид битрейта : Постоянный
Битрейт : 640 Кбит/сек
Каналы : 6 каналов
Channel layout : L R C LFE Ls Rs
Частота : 48,0 КГц
Частота кадров : 31,250 кадров/сек (1536 SPF)
Метод сжатия : С потерями
Размер потока : 466 Мбайт (12%)
Язык : French
Service kind : Complete Main
Default : Нет
Forced : Нет

Текст #1
Идентификатор : 5
Формат : UTF-8
Идентификатор кодека : S_TEXT/UTF8
Идентификатор кодека/Информация : UTF-8 Plain Text
Продолжительность : 1 ч. 39 м.
Битрейт : 40 бит/сек
Count of elements : 824
Размер потока : 30,0 Кбайт (0%)
Язык : Russian
Default : Нет
Forced : Нет

Текст #2
Идентификатор : 6
Формат : UTF-8
Идентификатор кодека : S_TEXT/UTF8
Идентификатор кодека/Информация : UTF-8 Plain Text
Продолжительность : 1 ч. 36 м.
Битрейт : 29 бит/сек
Count of elements : 825
Размер потока : 20,8 Кбайт (0%)
Язык : English
Default : Нет
Forced : Нет

Текст #3
Идентификатор : 7
Формат : UTF-8
Идентификатор кодека : S_TEXT/UTF8
Идентификатор кодека/Информация : UTF-8 Plain Text
Продолжительность : 1 ч. 40 м.
Битрейт : 42 бит/сек
Count of elements : 832
Размер потока : 30,8 Кбайт (0%)
Язык : Ukrainian
Default : Нет
Forced : Нет

Как скачать!

  • Похожие темы
    Ответы
    Просмотры
    Последнее сообщение

Вернуться в «Фильмы HD»

Кто сейчас на конференции

Сейчас этот форум просматривают: нет зарегистрированных пользователей и 1 гость