Отряд самоубийц: Миссия навылет / The Suicide Squad (2021) WEB-DL 720p | D, P, L2, | Line скачать бесплатно торрент

Фильмы высокого разрешения в формате HD
Торрент [ Статус: Проверен ] Скачать Сидеров Личеров Размер
The.Suicide.Squad.2021.720p.WEB-DL.mkv.torrent
247 19 5.67 ГБ
Аватара пользователя
admin
Администратор
Администратор
Сообщения: 11713
Зарегистрирован: 13 дек 2013, 01:15
Благодарил (а): 7 раз
Контактная информация:

Отряд самоубийц: Миссия навылет / The Suicide Squad (2021) WEB-DL 720p | D, P, L2, | Line

Сообщение admin » 10 авг 2021, 20:25

Год выпуска: 2021
Выпущено: США, Atlas Entertainment, DC Comics, DC Entertainment, Safran Company, The, Warner Bros.
Жанр: фантастика, боевик, комедия, приключения
Продолжительность: 02:12:06
Перевод: Дублированный (Line), профессиональный многоголосый (HDRezka studio) Любительский двухголосый (Pazl Voice)

Режиссер: Джеймс Ганн
В ролях: Марго Робби, Идрис Эльба, Джон Сина, Джоэл Киннаман, Майкл Рукер, Виола Дэвис, Джон Острандер, Натан Филлион, Джей Кортни, Флула Борг, Мэйлинг Нг, Пит Дэвидсон, Шон Ганн, Стивен Блэкхарт, Стив Эйджи, Тинаше Каджезе, Дженнифер Холланд, Фернандо Мартинес, Даниэла Мельхиор, Ди Брэдли Бейкер

О фильме: Есть на земле одно гнилое место, откуда мечтают свалить даже самые отъявленные злодеи. Тюрьма Белль Рив — для преступников со сверхспособностями. Она же — ад. Она же — база рекрутов для суперсекретного проекта «Отряд самоубийц».

Изображение Изображение
Изображение

Возраст: 18+
Качество: WEB-DL 720p
Видео: MPEG-4 AVC, 3400 Кбит/с, 1280x720
Аудио 1: AC3, 2 ch, 256 Кбит/с |Изображение|Line
Аудио 2: AC3, 6 ch, 448 Кбит/с |PazlVoice | Tnx.KinoPub
Аудио 3: AC3, 6 ch, 448 Кбит/с |HDRezka uncensored|
Аудио 4: AC3, 6 ch, 448 Кбит/с |HDRezka censored|
Аудио 5: AC3, 6 ch, 448 Кбит/с |UKR|
Аудио 2: E-AC3 JOC, 6 ch, 768 Кбит/с |
Субтитры: Русские (Focs) Английские (SDH)



Изображение Изображение Изображение Изображение

Общее
Уникальный идентификатор : 333588103570102200474216431773419321535 (0xFAF6BB55A6FFF9F393CCE1196EEC38BF)
Полное имя : E:TorrentsThe.Suicide.Squad.(2021).720p.WEB-DL_JNS82.mkv
Формат : Matroska
Версия формата : Version 4
Размер файла : 5,67 Гбайт
Продолжительность : 2 ч. 12 м.
Режим общего битрейта : Переменный
Общий поток : 6 149 Кбит/сек
Название фильма : The.Suicide.Squad.(2021).720p.WEB-DL_JNS82
Дата кодирования : UTC 2021-08-10 05:43:21
Программа кодирования : mkvmerge v59.0.0 ('Shining Star') 64-bit
Библиотека кодирования : libebml v1.4.2 + libmatroska v1.6.4

Видео
Идентификатор : 1
Формат : AVC
Формат/Информация : Advanced Video Codec
Профиль формата : [email protected]
Настройки формата : CABAC / 4 Ref Frames
Параметр CABAC формата : Да
Параметр RefFrames формата : 4 кадра
Идентификатор кодека : V_MPEG4/ISO/AVC
Продолжительность : 2 ч. 12 м.
Вид битрейта : Переменный
Битрейт : 3 400 Кбит/сек
Максимальный битрейт : 5 100 Кбит/сек
Ширина : 1 280 пикселей
Высота : 720 пикселей
Соотношение сторон : 16:9
Режим частоты кадров : Постоянный
Частота кадров : 23,976 (24000/1001) кадра/сек
Цветовое пространство : YUV
Субдискретизация насыщенности : 4:2:0
Битовая глубина : 8 бит
Тип развёртки : Прогрессивная
Бит/(Пиксели*Кадры) : 0.154
Размер потока : 3,13 Гбайт (55%)
Библиотека кодирования : x264 core 157 r2965 861cec4
Настройки программы : cabac=1 / ref=4 / deblock=1:0:0 / analyse=0x1:0x111 / me=hex / subme=7 / psy=1 / psy_rd=1.00:0.00 / mixed_ref=1 / me_range=16 / chroma_me=1 / trellis=1 / 8x8dct=0 / cqm=0 / deadzone=21,11 / fast_pskip=1 / chroma_qp_offset=-2 / threads=22 / lookahead_threads=3 / sliced_threads=0 / nr=0 / decimate=1 / interlaced=0 / bluray_compat=0 / constrained_intra=0 / bframes=3 / b_pyramid=2 / b_adapt=1 / b_bias=0 / direct=1 / weightb=1 / open_gop=0 / weightp=2 / keyint=96 / keyint_min=96 / scenecut=40 / intra_refresh=0 / rc_lookahead=40 / rc=2pass / mbtree=1 / bitrate=3400 / ratetol=1.0 / qcomp=0.60 / qpmin=0 / qpmax=69 / qpstep=4 / cplxblur=20.0 / qblur=0.5 / vbv_maxrate=5100 / vbv_bufsize=2550 / nal_hrd=vbr / filler=0 / ip_ratio=1.40 / aq=1:1.00
Default : Да
Forced : Нет
Цветовой диапазон : Limited
Основные цвета : BT.709
Характеристики трансфера : BT.709
Коэффициенты матрицы : BT.709

Аудио #1
Идентификатор : 2
Формат : AC-3
Формат/Информация : Audio Coding 3
Коммерческое название : Dolby Digital
Идентификатор кодека : A_AC3
Продолжительность : 2 ч. 12 м.
Вид битрейта : Постоянный
Битрейт : 256 Кбит/сек
Каналы : 2 канала
Channel layout : L R
Частота : 48,0 КГц
Частота кадров : 31,250 кадров/сек (1536 SPF)
Метод сжатия : С потерями
Размер потока : 242 Мбайт (4%)
Заголовок : [DUB] Line
Язык : Russian
Service kind : Complete Main
Default : Да
Forced : Нет

Аудио #2
Идентификатор : 3
Формат : AC-3
Формат/Информация : Audio Coding 3
Коммерческое название : Dolby Digital
Идентификатор кодека : A_AC3
Продолжительность : 2 ч. 12 м.
Вид битрейта : Постоянный
Битрейт : 448 Кбит/сек
Каналы : 6 каналов
Channel layout : L R C LFE Ls Rs
Частота : 48,0 КГц
Частота кадров : 31,250 кадров/сек (1536 SPF)
Метод сжатия : С потерями
Задержка видео : 28 мс.
Размер потока : 423 Мбайт (7%)
Заголовок : [Uncensored] HDRezka
Язык : Russian
Service kind : Complete Main
Default : Нет
Forced : Нет

Аудио #3
Идентификатор : 4
Формат : AC-3
Формат/Информация : Audio Coding 3
Коммерческое название : Dolby Digital
Идентификатор кодека : A_AC3
Продолжительность : 2 ч. 12 м.
Вид битрейта : Постоянный
Битрейт : 448 Кбит/сек
Каналы : 6 каналов
Channel layout : L R C LFE Ls Rs
Частота : 48,0 КГц
Частота кадров : 31,250 кадров/сек (1536 SPF)
Метод сжатия : С потерями
Задержка видео : 28 мс.
Размер потока : 423 Мбайт (7%)
Заголовок : [Censored] HDRezka
Язык : Russian
Service kind : Complete Main
Default : Нет
Forced : Нет

Аудио #4
Идентификатор : 5
Формат : AC-3
Формат/Информация : Audio Coding 3
Коммерческое название : Dolby Digital
Идентификатор кодека : A_AC3
Продолжительность : 2 ч. 12 м.
Вид битрейта : Постоянный
Битрейт : 384 Кбит/сек
Каналы : 6 каналов
Channel layout : L R C LFE Ls Rs
Частота : 48,0 КГц
Частота кадров : 31,250 кадров/сек (1536 SPF)
Метод сжатия : С потерями
Задержка видео : 28 мс.
Размер потока : 363 Мбайт (6%)
Заголовок : HDRezka
Язык : Ukrainian
Service kind : Complete Main
Default : Нет
Forced : Нет

Аудио #5
Идентификатор : 6
Формат : AC-3
Формат/Информация : Audio Coding 3
Коммерческое название : Dolby Digital
Идентификатор кодека : A_AC3
Продолжительность : 2 ч. 12 м.
Вид битрейта : Постоянный
Битрейт : 448 Кбит/сек
Каналы : 6 каналов
Channel layout : L R C LFE Ls Rs
Частота : 48,0 КГц
Частота кадров : 31,250 кадров/сек (1536 SPF)
Метод сжатия : С потерями
Размер потока : 423 Мбайт (7%)
Заголовок : [DVO] Pazl Voice
Язык : Russian
Service kind : Complete Main
Default : Нет
Forced : Нет

Аудио #6
Идентификатор : 7
Формат : E-AC-3 JOC
Формат/Информация : Enhanced AC-3 with Joint Object Coding
Коммерческое название : Dolby Digital Plus with Dolby Atmos
Идентификатор кодека : A_EAC3
Продолжительность : 2 ч. 12 м.
Вид битрейта : Постоянный
Битрейт : 768 Кбит/сек
Каналы : 6 каналов
Channel layout : L R C LFE Ls Rs
Частота : 48,0 КГц
Частота кадров : 31,250 кадров/сек (1536 SPF)
Метод сжатия : С потерями
Размер потока : 726 Мбайт (12%)
Заголовок : English
Язык : English
Service kind : Complete Main
Default : Нет
Forced : Нет
Complexity index : 16
Number of dynamic objects : 15
Bed channel count : 1 канал
Bed channel configuration : LFE

Текст #1
Идентификатор : 8
Формат : UTF-8
Идентификатор кодека : S_TEXT/UTF8
Идентификатор кодека/Информация : UTF-8 Plain Text
Продолжительность : 1 ч. 57 м.
Битрейт : 8 бит/сек
Count of elements : 191
Размер потока : 7,09 Кбайт (0%)
Заголовок : [Forced]
Язык : Russian
Default : Да
Forced : Нет

Текст #2
Идентификатор : 9
Формат : UTF-8
Идентификатор кодека : S_TEXT/UTF8
Идентификатор кодека/Информация : UTF-8 Plain Text
Продолжительность : 2 ч. 11 м.
Битрейт : 68 бит/сек
Count of elements : 1414
Размер потока : 66,4 Кбайт (0%)
Заголовок : [Full]
Язык : Russian
Default : Нет
Forced : Нет

Текст #3
Идентификатор : 10
Формат : UTF-8
Идентификатор кодека : S_TEXT/UTF8
Идентификатор кодека/Информация : UTF-8 Plain Text
Продолжительность : 2 ч. 11 м.
Битрейт : 40 бит/сек
Count of elements : 1482
Размер потока : 39,0 Кбайт (0%)
Заголовок : English
Язык : English
Default : Нет
Forced : Нет

Текст #4
Идентификатор : 11
Формат : UTF-8
Идентификатор кодека : S_TEXT/UTF8
Идентификатор кодека/Информация : UTF-8 Plain Text
Продолжительность : 2 ч. 11 м.
Битрейт : 58 бит/сек
Count of elements : 2050
Размер потока : 55,9 Кбайт (0%)
Заголовок : English SDH
Язык : English
Default : Нет
Forced : Нет

Текст #5
Идентификатор : 12
Формат : UTF-8
Идентификатор кодека : S_TEXT/UTF8
Идентификатор кодека/Информация : UTF-8 Plain Text
Продолжительность : 1 ч. 45 м.
Битрейт : 5 бит/сек
Count of elements : 94
Размер потока : 4,14 Кбайт (0%)
Заголовок : [Forced]
Язык : Ukrainian
Default : Нет
Forced : Нет

Как скачать!

  • Похожие темы
    Ответы
    Просмотры
    Последнее сообщение

Вернуться в «Фильмы HD»

Кто сейчас на конференции

Сейчас этот форум просматривают: нет зарегистрированных пользователей и 1 гость