Не время умирать / No Time to Die (2021) UHD WEB-DL-HEVC 2160p | 4K | HDR | iTunes скачать бесплатно торрент

Скачать торрент фильмы в формате 4K
Торрент [ Статус: Проверен ] Скачать Сидеров Личеров Размер
No.Time.to.Die.2021.WEB-DL.2160p.HDR.seleZen.mk.torrent
394 188 17.68 ГБ
Аватара пользователя
admin
Администратор
Администратор
Сообщения: 11713
Зарегистрирован: 13 дек 2013, 01:15
Благодарил (а): 7 раз
Контактная информация:

Не время умирать / No Time to Die (2021) UHD WEB-DL-HEVC 2160p | 4K | HDR | iTunes

Сообщение admin » 08 дек 2021, 20:14

Информация о фильме
Название: Не время умирать
Оригинальное название: No Time to Die
Год выхода: 2021
Жанр: Боевик, триллер, приключения
Режиссер: Кэри Дзёдзи Фукунага
В ролях: Дэниэл Крэйг, Леа Сейду, Рами Малек, Лашана Линч, Рэйф Файнс, Бен Уишоу, Наоми Харрис, Рори Киннер, Джеффри Райт, Билли Магнуссен, Кристоф Вальц, Давид Денсик, Ана де Армас, Дали Бенссалах, Лиза-Дора Соннет

Изображение Изображение

О фильме: Оставив службу, Бонд наслаждается красивой жизнью со своей возлюбленной Мадлен Суонн и пытается навсегда распрощаться с прошлым. Однако покою быстро приходит конец, когда прошлое настигает героя в лице его заклятых врагов. Старинный друг Бонда из ЦРУ Феликс Лейтер просит бывшего агента 007 разыскать похищенного ученого Валдо Обручева, участвовавшего в секретной разработке наноботов — смертельного вируса, который проникает в кожу человека и способен убивать при малейшем контакте с зараженным. Бонду предстоит раскрыть таинственного злодея, в чьих руках вирус оказывается оружием массового поражения, и спасти тех, кто ему дорог.

Страна: Великобритания, США
Студия: B25, Cinesite, Danjaq, Eon Productions Ltd., Metro-Goldwyn-Mayer (MGM), Universal Pictures
Продолжительность: 02:43:23
Перевод: Дублированный | iTunes

Качество: WEB-DL 2160p
Видео: 3832x1596 at 23.976 fps, MPEG-H HEVC HDR Video, ~ 14300 kbps avg
Аудио #01: 48 kHz, AC3, 5.1, 384 Kbps | iTunes | RUS |Изображение
Аудио #02: 48 kHz, E-AC3+Atmos, 5.1, 768 Kbps | Оригинал | ENG |Изображение
Субтитры: Русские (Forced, full), английские

Изображение Изображение Изображение Изображение Изображение
General
Unique ID : 304063363370561514631799293275798011548 (0xE4C079412B32E94BF3A0F77E55087E9C)
Complete name : E:VideoNo.Time.to.Die.2021.WEB-DL.2160p.HDR.seleZen.mkv
Format : Matroska
Format version : Version 4
File size : 17.7 GiB
Duration : 2 h 43 min
Overall bit rate : 15.5 Mb/s
Movie name : No Time to Die 2021 from seleZen
Encoded date : UTC 2021-12-07 21:29:40
Writing application : mkvmerge v59.0.0 ('Shining Star') 64-bit
Writing library : libebml v1.4.2 + libmatroska v1.6.4

Video
ID : 1
Format : HEVC
Format/Info : High Efficiency Video Coding
Format profile : Main [email protected]@High
HDR format : SMPTE ST 2086, HDR10 compatible
Codec ID : V_MPEGH/ISO/HEVC
Duration : 2 h 43 min
Bit rate : 14.3 Mb/s
Width : 3 832 pixels
Height : 1 596 pixels
Display aspect ratio : 2.40:1
Frame rate mode : Constant
Frame rate : 23.976 FPS
Color space : YUV
Chroma subsampling : 4:2:0 (Type 2)
Bit depth : 10 bits
Bits/(Pixel*Frame) : 0.098
Stream size : 16.4 GiB (93%)
Language : English
Default : Yes
Forced : No
Color range : Limited
Color primaries : BT.2020
Transfer characteristics : PQ
Matrix coefficients : BT.2020 non-constant
Mastering display color primaries : BT.2020
Mastering display luminance : min: 0.0050 cd/m2, max: 1000 cd/m2
Maximum Content Light Level : 1753 cd/m2
Maximum Frame-Average Light Level : 990 cd/m2

Audio #1
ID : 2
Format : AC-3
Format/Info : Audio Coding 3
Commercial name : Dolby Digital
Codec ID : A_AC3
Duration : 2 h 43 min
Bit rate mode : Constant
Bit rate : 384 kb/s
Channel(s) : 6 channels
Channel layout : L R C LFE Ls Rs
Sampling rate : 48.0 kHz
Frame rate : 31.250 FPS (1536 SPF)
Compression mode : Lossy
Stream size : 449 MiB (2%)
Title : iTunes
Language : Russian
Service kind : Complete Main
Default : Yes
Forced : Yes

Audio #2
ID : 3
Format : E-AC-3 JOC
Format/Info : Enhanced AC-3 with Joint Object Coding
Commercial name : Dolby Digital Plus with Dolby Atmos
Codec ID : A_EAC3
Duration : 2 h 43 min
Bit rate mode : Constant
Bit rate : 768 kb/s
Channel(s) : 6 channels
Channel layout : L R C LFE Ls Rs
Sampling rate : 48.0 kHz
Frame rate : 31.250 FPS (1536 SPF)
Compression mode : Lossy
Stream size : 898 MiB (5%)
Title : Original
Language : English
Service kind : Complete Main
Default : No
Forced : No
Complexity index : 16
Number of dynamic objects : 15
Bed channel count : 1 channel
Bed channel configuration : LFE

Text #1
ID : 4
Format : UTF-8
Codec ID : S_TEXT/UTF8
Codec ID/Info : UTF-8 Plain Text
Duration : 2 h 42 min
Bit rate : 1 b/s
Count of elements : 52
Stream size : 1.95 KiB (0%)
Title : Forced
Language : Russian
Default : Yes
Forced : Yes

Text #2
ID : 5
Format : UTF-8
Codec ID : S_TEXT/UTF8
Codec ID/Info : UTF-8 Plain Text
Duration : 2 h 42 min
Bit rate : 64 b/s
Count of elements : 1735
Stream size : 76.3 KiB (0%)
Title : Full
Language : English
Default : No
Forced : No

Text #3
ID : 6
Format : UTF-8
Codec ID : S_TEXT/UTF8
Codec ID/Info : UTF-8 Plain Text
Duration : 2 h 15 min
Bit rate : 1 b/s
Count of elements : 55
Stream size : 1.21 KiB (0%)
Title : Forced
Language : English
Default : No
Forced : No

Text #4
ID : 7
Format : UTF-8
Codec ID : S_TEXT/UTF8
Codec ID/Info : UTF-8 Plain Text
Duration : 2 h 35 min
Bit rate : 41 b/s
Count of elements : 1707
Stream size : 47.2 KiB (0%)
Title : Full
Language : English
Default : No
Forced : No

Text #5
ID : 8
Format : UTF-8
Codec ID : S_TEXT/UTF8
Codec ID/Info : UTF-8 Plain Text
Duration : 2 h 40 min
Bit rate : 50 b/s
Count of elements : 2191
Stream size : 59.5 KiB (0%)
Title : SDH
Language : English
Default : No
Forced : No

Menu
00:00:00.000 : Chapter 1
00:11:57.125 : Chapter 2
00:27:09.750 : Chapter 3
00:43:46.000 : Chapter 4
00:56:58.099 : Chapter 5
01:04:09.000 : Chapter 6
01:13:06.500 : Chapter 7
01:22:28.832 : Chapter 8
01:33:49.332 : Chapter 9
01:51:42.000 : Chapter 10
02:06:54.000 : Chapter 11
02:25:23.500 : Chapter 12
02:35:07.000 : Chapter 13

Как скачать!

  • Похожие темы
    Ответы
    Просмотры
    Последнее сообщение

Вернуться в «Фильмы 4K»

Кто сейчас на конференции

Сейчас этот форум просматривают: нет зарегистрированных пользователей и 1 гость